Surprise Me

Dolby Test 5.1 Surround for HOME THEATER with Download link - HDMaza.pw

Oct 22, 2013 795 105 493,411

I think YouTube currently does not support 5.1. So u can download this video from following link https://drive.google.com/fi... After selecting the link Select FILE then click Download -or- Ctrl+S ------------------------------ General ----------- Format : AVI Format/Info : Audio Video Interleave File size : 8.02 MiB Duration : 1mn 17s Overall bit rate : 868 Kbps Writing application : VirtualDubMod 1.5.4.1 (build 2178/release) Writing library : VirtualDubMod build 2178/release Video -------- Format : MPEG-4 Visual Codec ID : XVID Duration : 1mn 17s Bit rate : 411 Kbps Width : 720 pixels Height : 416 pixels Display aspect ratio : 1.731 Frame rate : 29.970 fps Color space : YUV Chroma subsampling : 4:2:0 Bit depth : 8 bits Scan type : Progressive Compression mode : Lossy Bits/(Pixel*Frame) : 0.046 Stream size : 3.80 MiB (47%) Writing library : XviD 1.2.0.dev47 (UTC 2006-11-01) Audio -------- Format : AC-3 Format/Info : Audio Coding 3 Mode extension : CM (complete main) Duration : 1mn 17s Bit rate mode : Constant Bit rate : 448 Kbps Channel(s) : 6 channels Channel positions : Front: L C R, Side: L R, LFE Sampling rate : 48.0 KHz Bit depth : 16 bits Compression mode : Lossy Stream size : 4.14 MiB (52%)

eXTReMe Tracker
HDMaza.pw